[SOLVED] v.1.107 Error by extracting any PCM bluray audio

Bug reports go here.
Post Reply
ilk2011
Posts: 38
Joined: Tue Feb 11, 2020 7:20 pm

[SOLVED] v.1.107 Error by extracting any PCM bluray audio

Post by ilk2011 »

Healthy New Year for all!
The program v.1.107 stopped seeing any PCM (multichannel or stereo) files in bluray audio (see picture). I've tried it with many different BRs. Version 1.100 operates with them correctly (see picture). DTS files are also OK.
Image
Image
Image
ilk2011
Posts: 38
Joined: Tue Feb 11, 2020 7:20 pm

Re: v.1.107 Error by extracting any PCM bluray audio

Post by ilk2011 »

If it helps BD info:
Disc Label: KING CRIMSON
Disc Size: 35,461,345,967 bytes
Protection: AACS
BDInfo: 0.7.5.5

********************
PLAYLIST: 00005.MPLS
********************

<--- BEGIN FORUMS PASTE --->

Code: Select all

                                                                                                                Total   Video                                             
Title                                                           Codec   Length  Movie Size      Disc Size       Bitrate Bitrate Main Audio Track                          Secondary Audio Track
-----                                                           ------  ------- --------------  --------------  ------- ------- ------------------                        ---------------------
00005.MPLS                                                      AVC     0:55:52 4,122,641,280   35,461,345,967  9.84    4.65    LPCM 2.0 4608Kbps (96kHz/24-bit)          

Code: Select all


DISC INFO:

Disc Label:     KING CRIMSON
Disc Size:      35,461,345,967 bytes
Protection:     AACS
BDInfo:         0.7.5.5

PLAYLIST REPORT:

Name:                   00005.MPLS
Length:                 0:55:52.932 (h:m:s.ms)
Size:                   4,122,641,280 bytes
Total Bitrate:          9.84 Mbps

VIDEO:

Codec                   Bitrate             Description     
-----                   -------             -----------     
MPEG-4 AVC Video        4647 kbps           1080p / 23.976 fps / 16:9 / High Profile 4.1

AUDIO:

Codec                           Language        Bitrate         Description     
-----                           --------        -------         -----------     
LPCM Audio                      English         4608 kbps       2.0 / 96 kHz /  4608 kbps / 24-bit

FILES:

Name            Time In         Length          Size            Total Bitrate   
----            -------         ------          ----            -------------   
00005.M2TS      0:00:00.000     0:55:51.931     4,122,616,704   9,839           
00019.M2TS      0:55:51.931     0:00:01.000     24,576          196             

CHAPTERS:

Number          Time In         Length          Avg Video Rate  Max 1-Sec Rate  Max 1-Sec Time  Max 5-Sec Rate  Max 5-Sec Time  Max 10Sec Rate  Max 10Sec Time  Avg Frame Size  Max Frame Size  Max Frame Time  
------          -------         ------          --------------  --------------  --------------  --------------  --------------  --------------  --------------  --------------  --------------  --------------  
1               0:00:00.000     0:04:28.268     4,642 kbps      7,565 kbps      00:04:26.891    5,097 kbps      00:04:23.221    4,731 kbps      00:04:18.174    24,200 bytes    350,770 bytes   00:04:27.892    
2               0:04:28.268     0:07:05.675     4,664 kbps      7,702 kbps      00:11:32.650    5,140 kbps      00:11:28.938    4,764 kbps      00:11:23.933    24,317 bytes    351,868 bytes   00:11:33.651    
3               0:11:33.943     0:04:15.630     4,648 kbps      7,365 kbps      00:15:47.738    5,071 kbps      00:15:44.068    4,750 kbps      00:15:39.521    24,234 bytes    352,189 bytes   00:15:48.739    
4               0:15:49.573     0:09:04.835     4,652 kbps      7,413 kbps      00:24:52.782    5,070 kbps      00:24:49.112    4,732 kbps      00:24:44.399    24,255 bytes    351,286 bytes   00:24:53.783    
5               0:24:54.409     0:09:03.292     4,644 kbps      7,439 kbps      00:33:55.992    5,078 kbps      00:33:52.321    4,739 kbps      00:33:47.608    24,209 bytes    351,005 bytes   00:33:56.993    
6               0:33:57.702     0:07:13.766     4,645 kbps      7,674 kbps      00:41:10.050    5,130 kbps      00:41:06.380    4,753 kbps      00:41:01.417    24,215 bytes    351,942 bytes   00:41:10.968    
7               0:41:11.469     0:06:45.696     4,659 kbps      7,596 kbps      00:47:55.622    5,134 kbps      00:47:51.952    4,777 kbps      00:47:47.155    24,289 bytes    352,979 bytes   00:47:56.540    
8               0:47:57.165     0:03:23.202     4,670 kbps      7,891 kbps      00:51:19.326    5,157 kbps      00:51:15.363    4,784 kbps      00:51:10.150    24,350 bytes    352,433 bytes   00:51:19.367    
9               0:51:20.368     0:04:31.562     4,601 kbps      7,114 kbps      00:54:00.820    4,958 kbps      00:53:21.323    4,653 kbps      00:53:21.323    23,992 bytes    350,064 bytes   00:51:38.595    
10              0:55:51.931     0:00:01.000     75 kbps         0 kbps          00:00:00.000    0 kbps          00:00:00.000    0 kbps          00:00:00.000    407 bytes       2,424 bytes     00:55:52.682    

STREAM DIAGNOSTICS:

File            PID             Type            Codec           Language                Seconds                 Bitrate                 Bytes           Packets         
----            ---             ----            -----           --------                --------------          --------------          -------------   -----           
00005.M2TS      4113 (0x1011)   0x1B            AVC                                     3351.849                4,649                   1,947,831,614   10,635,480      
00005.M2TS      4352 (0x1100)   0x80            LPCM            eng (English)           3351.849                4,614                   1,933,373,036   10,726,064      
00019.M2TS      4113 (0x1011)   0x1B            AVC                                     0.876                   108                     11,791          72              

<---- END FORUMS PASTE ---->

QUICK SUMMARY:

Disc Label: KING CRIMSON
Disc Size: 35,461,345,967 bytes
Protection: AACS
Playlist: 00005.MPLS
Size: 4,122,641,280 bytes
Length: 0:55:52.932
Total Bitrate: 9.84 Mbps
Video: MPEG-4 AVC Video / 4647 kbps / 1080p / 23.976 fps / 16:9 / High Profile 4.1
Audio: English / LPCM Audio / 2.0 / 96 kHz / 4608 kbps / 24-bit


********************
PLAYLIST: 00004.MPLS
********************

<--- BEGIN FORUMS PASTE --->

Code: Select all

                                                                                                                Total   Video                                             
Title                                                           Codec   Length  Movie Size      Disc Size       Bitrate Bitrate Main Audio Track                          Secondary Audio Track
-----                                                           ------  ------- --------------  --------------  ------- ------- ------------------                        ---------------------
00004.MPLS                                                      AVC     0:45:21 3,245,709,888   35,461,345,967  9.54    4.36    LPCM 2.0 4608Kbps (96kHz/24-bit)          

Code: Select all


DISC INFO:

Disc Label:     KING CRIMSON
Disc Size:      35,461,345,967 bytes
Protection:     AACS
BDInfo:         0.7.5.5

PLAYLIST REPORT:

Name:                   00004.MPLS
Length:                 0:45:21.844 (h:m:s.ms)
Size:                   3,245,709,888 bytes
Total Bitrate:          9.54 Mbps

VIDEO:

Codec                   Bitrate             Description     
-----                   -------             -----------     
MPEG-4 AVC Video        4363 kbps           1080p / 23.976 fps / 16:9 / High Profile 4.1

AUDIO:

Codec                           Language        Bitrate         Description     
-----                           --------        -------         -----------     
LPCM Audio                      English         4608 kbps       2.0 / 96 kHz /  4608 kbps / 24-bit

FILES:

Name            Time In         Length          Size            Total Bitrate   
----            -------         ------          ----            -------------   
00004.M2TS      0:00:00.000     0:45:20.843     3,245,685,312   9,543           
00019.M2TS      0:45:20.843     0:00:01.000     24,576          196             

CHAPTERS:

Number          Time In         Length          Avg Video Rate  Max 1-Sec Rate  Max 1-Sec Time  Max 5-Sec Rate  Max 5-Sec Time  Max 10Sec Rate  Max 10Sec Time  Avg Frame Size  Max Frame Size  Max Frame Time  
------          -------         ------          --------------  --------------  --------------  --------------  --------------  --------------  --------------  --------------  --------------  --------------  
1               0:00:00.000     0:06:44.487     4,393 kbps      7,062 kbps      00:06:42.693    4,820 kbps      00:06:39.023    4,503 kbps      00:06:34.477    22,898 bytes    329,249 bytes   00:06:43.694    
2               0:06:44.487     0:06:34.769     4,362 kbps      7,197 kbps      00:13:18.214    4,785 kbps      00:13:14.251    4,454 kbps      00:13:09.246    22,741 bytes    327,572 bytes   00:13:19.131    
3               0:13:19.256     0:07:18.896     4,377 kbps      7,199 kbps      00:20:36.818    4,831 kbps      00:20:33.148    4,473 kbps      00:20:28.018    22,818 bytes    330,715 bytes   00:20:37.736    
4               0:20:38.153     0:05:42.675     4,372 kbps      6,944 kbps      00:26:19.035    4,770 kbps      00:26:15.365    4,460 kbps      00:26:10.819    22,794 bytes    327,709 bytes   00:26:20.036    
5               0:26:20.829     0:09:29.485     4,351 kbps      6,904 kbps      00:35:48.896    4,740 kbps      00:35:45.226    4,422 kbps      00:35:40.263    22,683 bytes    325,695 bytes   00:35:49.814    
6               0:35:50.314     0:02:21.182     4,364 kbps      7,067 kbps      00:38:10.204    4,768 kbps      00:38:06.492    4,436 kbps      00:38:01.404    22,750 bytes    324,989 bytes   00:38:11.122    
7               0:38:11.497     0:07:09.345     4,344 kbps      6,670 kbps      00:39:52.973    4,690 kbps      00:38:52.413    4,399 kbps      00:39:42.838    22,652 bytes    324,444 bytes   00:43:23.100    
8               0:45:20.843     0:00:01.001     75 kbps         0 kbps          00:00:00.000    0 kbps          00:00:00.000    0 kbps          00:00:00.000    407 bytes       2,424 bytes     00:45:21.593    

STREAM DIAGNOSTICS:

File            PID             Type            Codec           Language                Seconds                 Bitrate                 Bytes           Packets         
----            ---             ----            -----           --------                --------------          --------------          -------------   -----           
00004.M2TS      4113 (0x1011)   0x1B            AVC                                     2720.760                4,366                   1,484,919,449   8,108,669       
00004.M2TS      4352 (0x1100)   0x80            LPCM            eng (English)           2720.760                4,614                   1,569,360,324   8,706,576       
00019.M2TS      4113 (0x1011)   0x1B            AVC                                     0.876                   108                     11,791          72              

<---- END FORUMS PASTE ---->

QUICK SUMMARY:

Disc Label: KING CRIMSON
Disc Size: 35,461,345,967 bytes
Protection: AACS
Playlist: 00004.MPLS
Size: 3,245,709,888 bytes
Length: 0:45:21.844
Total Bitrate: 9.54 Mbps
Video: MPEG-4 AVC Video / 4363 kbps / 1080p / 23.976 fps / 16:9 / High Profile 4.1
Audio: English / LPCM Audio / 2.0 / 96 kHz / 4608 kbps / 24-bit


********************
PLAYLIST: 00002.MPLS
********************

<--- BEGIN FORUMS PASTE --->

Code: Select all

                                                                                                                Total   Video                                             
Title                                                           Codec   Length  Movie Size      Disc Size       Bitrate Bitrate Main Audio Track                          Secondary Audio Track
-----                                                           ------  ------- --------------  --------------  ------- ------- ------------------                        ---------------------
00002.MPLS                                                      AVC     0:44:05 5,777,477,952   35,461,345,967  17.47   11.96   LPCM 2.0 4608Kbps (96kHz/24-bit)          

Code: Select all


DISC INFO:

Disc Label:     KING CRIMSON
Disc Size:      35,461,345,967 bytes
Protection:     AACS
BDInfo:         0.7.5.5

PLAYLIST REPORT:

Name:                   00002.MPLS
Length:                 0:44:05.851 (h:m:s.ms)
Size:                   5,777,477,952 bytes
Total Bitrate:          17.47 Mbps

VIDEO:

Codec                   Bitrate             Description     
-----                   -------             -----------     
MPEG-4 AVC Video        11962 kbps          1080p / 23.976 fps / 16:9 / High Profile 4.1

AUDIO:

Codec                           Language        Bitrate         Description     
-----                           --------        -------         -----------     
LPCM Audio                      English         4608 kbps       2.0 / 96 kHz /  4608 kbps / 24-bit

FILES:

Name            Time In         Length          Size            Total Bitrate   
----            -------         ------          ----            -------------   
00002.M2TS      0:00:00.000     0:44:04.850     5,777,453,376   17,475          
00019.M2TS      0:44:04.850     0:00:01.000     24,576          196             

CHAPTERS:

Number          Time In         Length          Avg Video Rate  Max 1-Sec Rate  Max 1-Sec Time  Max 5-Sec Rate  Max 5-Sec Time  Max 10Sec Rate  Max 10Sec Time  Avg Frame Size  Max Frame Size  Max Frame Time  
------          -------         ------          --------------  --------------  --------------  --------------  --------------  --------------  --------------  --------------  --------------  --------------  
1               0:00:00.000     0:07:22.316     11,048 kbps     17,864 kbps     00:07:20.356    12,475 kbps     00:07:15.726    11,625 kbps     00:07:10.638    57,596 bytes    914,428 bytes   00:04:22.387    
2               0:07:22.316     0:06:07.367     11,639 kbps     18,157 kbps     00:13:23.636    12,787 kbps     00:12:36.839    11,988 kbps     00:13:08.537    60,680 bytes    918,268 bytes   00:11:18.969    
3               0:13:29.683     0:08:56.285     11,940 kbps     18,469 kbps     00:22:16.793    13,098 kbps     00:22:05.741    12,299 kbps     00:22:00.736    62,250 bytes    918,848 bytes   00:17:19.538    
4               0:22:25.969     0:12:15.276     12,203 kbps     18,660 kbps     00:34:24.395    13,349 kbps     00:34:28.983    12,522 kbps     00:34:01.956    63,619 bytes    918,088 bytes   00:23:27.531    
5               0:34:41.245     0:09:23.604     12,620 kbps     21,739 kbps     00:44:02.473    16,087 kbps     00:43:57.885    14,926 kbps     00:43:54.256    65,798 bytes    912,810 bytes   00:37:39.048    
6               0:44:04.850     0:00:01.001     75 kbps         0 kbps          00:00:00.000    0 kbps          00:00:00.000    0 kbps          00:00:00.000    407 bytes       2,424 bytes     00:44:05.601    

STREAM DIAGNOSTICS:

File            PID             Type            Codec           Language                Seconds                 Bitrate                 Bytes           Packets         
----            ---             ----            -----           --------                --------------          --------------          -------------   -----           
00002.M2TS      4113 (0x1011)   0x1B            AVC                                     2644.767                11,969                  3,957,054,466   21,542,938      
00002.M2TS      4352 (0x1100)   0x80            LPCM            eng (English)           2644.767                4,614                   1,525,526,408   8,463,392       
00019.M2TS      4113 (0x1011)   0x1B            AVC                                     0.876                   108                     11,791          72              

<---- END FORUMS PASTE ---->

QUICK SUMMARY:

Disc Label: KING CRIMSON
Disc Size: 35,461,345,967 bytes
Protection: AACS
Playlist: 00002.MPLS
Size: 5,777,477,952 bytes
Length: 0:44:05.851
Total Bitrate: 17.47 Mbps
Video: MPEG-4 AVC Video / 11962 kbps / 1080p / 23.976 fps / 16:9 / High Profile 4.1
Audio: English / LPCM Audio / 2.0 / 96 kHz / 4608 kbps / 24-bit


********************
PLAYLIST: 00003.MPLS
********************

<--- BEGIN FORUMS PASTE --->

Code: Select all

                                                                                                                Total   Video                                             
Title                                                           Codec   Length  Movie Size      Disc Size       Bitrate Bitrate Main Audio Track                          Secondary Audio Track
-----                                                           ------  ------- --------------  --------------  ------- ------- ------------------                        ---------------------
00003.MPLS                                                      AVC     0:43:55 4,111,932,864   35,461,345,967  12.48   7.18    LPCM 2.0 4608Kbps (96kHz/24-bit)          

Code: Select all


DISC INFO:

Disc Label:     KING CRIMSON
Disc Size:      35,461,345,967 bytes
Protection:     AACS
BDInfo:         0.7.5.5

PLAYLIST REPORT:

Name:                   00003.MPLS
Length:                 0:43:55.174 (h:m:s.ms)
Size:                   4,111,932,864 bytes
Total Bitrate:          12.48 Mbps

VIDEO:

Codec                   Bitrate             Description     
-----                   -------             -----------     
MPEG-4 AVC Video        7184 kbps           1080p / 23.976 fps / 16:9 / High Profile 4.1

AUDIO:

Codec                           Language        Bitrate         Description     
-----                           --------        -------         -----------     
LPCM Audio                      English         4608 kbps       2.0 / 96 kHz /  4608 kbps / 24-bit

FILES:

Name            Time In         Length          Size            Total Bitrate   
----            -------         ------          ----            -------------   
00003.M2TS      0:00:00.000     0:43:54.173     4,111,908,288   12,488          
00019.M2TS      0:43:54.173     0:00:01.000     24,576          196             

CHAPTERS:

Number          Time In         Length          Avg Video Rate  Max 1-Sec Rate  Max 1-Sec Time  Max 5-Sec Rate  Max 5-Sec Time  Max 10Sec Rate  Max 10Sec Time  Avg Frame Size  Max Frame Size  Max Frame Time  
------          -------         ------          --------------  --------------  --------------  --------------  --------------  --------------  --------------  --------------  --------------  --------------  
1               0:00:00.000     0:07:23.776     7,245 kbps      11,368 kbps     00:07:21.232    7,849 kbps      00:07:18.521    7,324 kbps      00:07:13.724    37,771 bytes    549,687 bytes   00:00:20.145    
2               0:07:23.776     0:06:05.615     7,226 kbps      11,182 kbps     00:13:20.049    7,786 kbps      00:07:38.708    7,292 kbps      00:07:39.584    37,671 bytes    547,982 bytes   00:07:38.749    
3               0:13:29.391     0:08:47.235     7,177 kbps      11,103 kbps     00:22:12.247    7,741 kbps      00:13:41.111    7,261 kbps      00:13:42.947    37,417 bytes    545,999 bytes   00:15:53.285    
4               0:22:16.626     0:12:12.606     7,168 kbps      11,219 kbps     00:34:23.519    7,757 kbps      00:34:22.643    7,239 kbps      00:34:18.014    37,370 bytes    545,314 bytes   00:22:16.835    
5               0:34:29.233     0:09:24.939     7,150 kbps      11,075 kbps     00:34:42.830    7,708 kbps      00:34:39.160    7,220 kbps      00:34:40.036    37,277 bytes    545,242 bytes   00:34:32.737    
6               0:43:54.173     0:00:01.001     75 kbps         0 kbps          00:00:00.000    0 kbps          00:00:00.000    0 kbps          00:00:00.000    407 bytes       2,424 bytes     00:43:54.923    

STREAM DIAGNOSTICS:

File            PID             Type            Codec           Language                Seconds                 Bitrate                 Bytes           Packets         
----            ---             ----            -----           --------                --------------          --------------          -------------   -----           
00003.M2TS      4113 (0x1011)   0x1B            AVC                                     2634.090                7,189                   2,366,961,815   12,901,731      
00003.M2TS      4352 (0x1100)   0x80            LPCM            eng (English)           2634.090                4,614                   1,519,369,068   8,429,232       
00019.M2TS      4113 (0x1011)   0x1B            AVC                                     0.876                   108                     11,791          72              

<---- END FORUMS PASTE ---->

QUICK SUMMARY:

Disc Label: KING CRIMSON
Disc Size: 35,461,345,967 bytes
Protection: AACS
Playlist: 00003.MPLS
Size: 4,111,932,864 bytes
Length: 0:43:55.174
Total Bitrate: 12.48 Mbps
Video: MPEG-4 AVC Video / 7184 kbps / 1080p / 23.976 fps / 16:9 / High Profile 4.1
Audio: English / LPCM Audio / 2.0 / 96 kHz / 4608 kbps / 24-bit


********************
PLAYLIST: 00000.MPLS
********************

<--- BEGIN FORUMS PASTE --->

Code: Select all

                                                                                                                Total   Video                                             
Title                                                           Codec   Length  Movie Size      Disc Size       Bitrate Bitrate Main Audio Track                          Secondary Audio Track
-----                                                           ------  ------- --------------  --------------  ------- ------- ------------------                        ---------------------
00000.MPLS                                                      AVC     0:43:48 12,113,211,840  35,461,345,967  36.87   14.83   DTS-HD Master 5.1 6077Kbps (96kHz/24-bit) LPCM 5.1 13824Kbps (96kHz/24-bit)

Code: Select all


DISC INFO:

Disc Label:     KING CRIMSON
Disc Size:      35,461,345,967 bytes
Protection:     AACS
BDInfo:         0.7.5.5

PLAYLIST REPORT:

Name:                   00000.MPLS
Length:                 0:43:48.500 (h:m:s.ms)
Size:                   12,113,211,840 bytes
Total Bitrate:          36.87 Mbps

VIDEO:

Codec                   Bitrate             Description     
-----                   -------             -----------     
MPEG-4 AVC Video        14826 kbps          1080p / 23.976 fps / 16:9 / High Profile 4.1

AUDIO:

Codec                           Language        Bitrate         Description     
-----                           --------        -------         -----------     
DTS-HD Master Audio             English         6077 kbps       5.1 / 96 kHz /  6077 kbps / 24-bit (DTS Core: 5.1 / 48 kHz /  1509 kbps / 24-bit)
LPCM Audio                      English         13824 kbps      5.1 / 96 kHz / 13824 kbps / 24-bit

FILES:

Name            Time In         Length          Size            Total Bitrate   
----            -------         ------          ----            -------------   
00000.M2TS      0:00:00.000     0:43:47.499     12,113,187,264  36,881          
00019.M2TS      0:43:47.499     0:00:01.000     24,576          196             

CHAPTERS:

Number          Time In         Length          Avg Video Rate  Max 1-Sec Rate  Max 1-Sec Time  Max 5-Sec Rate  Max 5-Sec Time  Max 10Sec Rate  Max 10Sec Time  Avg Frame Size  Max Frame Size  Max Frame Time  
------          -------         ------          --------------  --------------  --------------  --------------  --------------  --------------  --------------  --------------  --------------  --------------  
1               0:00:00.000     0:07:22.316     13,122 kbps     20,163 kbps     00:07:21.232    14,903 kbps     00:07:13.850    14,057 kbps     00:07:08.845    68,406 bytes    922,903 bytes   00:00:00.834    
2               0:07:22.316     0:05:59.233     14,036 kbps     20,523 kbps     00:13:15.419    15,386 kbps     00:12:49.685    14,525 kbps     00:12:59.361    73,178 bytes    921,652 bytes   00:09:39.870    
3               0:13:21.550     0:08:51.656     14,625 kbps     21,227 kbps     00:22:11.288    16,120 kbps     00:21:58.400    15,214 kbps     00:22:00.736    76,248 bytes    921,676 bytes   00:14:16.981    
4               0:22:13.206     0:12:11.564     15,310 kbps     21,838 kbps     00:34:21.684    16,879 kbps     00:34:18.014    15,961 kbps     00:33:30.758    79,819 bytes    919,862 bytes   00:29:14.377    
5               0:34:24.771     0:09:22.728     16,260 kbps     23,285 kbps     00:43:45.956    18,523 kbps     00:43:23.058    17,623 kbps     00:42:57.575    84,777 bytes    916,928 bytes   00:43:46.957    
6               0:43:47.499     0:00:01.000     75 kbps         0 kbps          00:00:00.000    0 kbps          00:00:00.000    0 kbps          00:00:00.000    407 bytes       2,424 bytes     00:43:48.250    

STREAM DIAGNOSTICS:

File            PID             Type            Codec           Language                Seconds                 Bitrate                 Bytes           Packets         
----            ---             ----            -----           --------                --------------          --------------          -------------   -----           
00000.M2TS      4113 (0x1011)   0x1B            AVC                                     2627.416                14,835                  4,872,199,994   26,517,217      
00000.M2TS      4352 (0x1100)   0x86            DTS-HD MA       eng (English)           2627.416                6,080                   1,996,815,560   11,264,481      
00000.M2TS      4353 (0x1101)   0x80            LPCM            eng (English)           2627.416                13,831                  4,542,422,000   25,224,000      
00019.M2TS      4113 (0x1011)   0x1B            AVC                                     0.876                   108                     11,791          72              

<---- END FORUMS PASTE ---->

QUICK SUMMARY:

Disc Label: KING CRIMSON
Disc Size: 35,461,345,967 bytes
Protection: AACS
Playlist: 00000.MPLS
Size: 12,113,211,840 bytes
Length: 0:43:48.500
Total Bitrate: 36.87 Mbps
Video: MPEG-4 AVC Video / 14826 kbps / 1080p / 23.976 fps / 16:9 / High Profile 4.1
Audio: English / DTS-HD Master Audio / 5.1 / 96 kHz / 6077 kbps / 24-bit (DTS Core: 5.1 / 48 kHz / 1509 kbps / 24-bit)
Audio: English / LPCM Audio / 5.1 / 96 kHz / 13824 kbps / 24-bit


********************
PLAYLIST: 00001.MPLS
********************

<--- BEGIN FORUMS PASTE --->

Code: Select all

                                                                                                                Total   Video                                             
Title                                                           Codec   Length  Movie Size      Disc Size       Bitrate Bitrate Main Audio Track                          Secondary Audio Track
-----                                                           ------  ------- --------------  --------------  ------- ------- ------------------                        ---------------------
00001.MPLS                                                      AVC     0:43:48 5,734,892,928   35,461,345,967  17.45   11.95   LPCM 2.0 4608Kbps (96kHz/24-bit)          

Code: Select all


DISC INFO:

Disc Label:     KING CRIMSON
Disc Size:      35,461,345,967 bytes
Protection:     AACS
BDInfo:         0.7.5.5

PLAYLIST REPORT:

Name:                   00001.MPLS
Length:                 0:43:48.500 (h:m:s.ms)
Size:                   5,734,892,928 bytes
Total Bitrate:          17.45 Mbps

VIDEO:

Codec                   Bitrate             Description     
-----                   -------             -----------     
MPEG-4 AVC Video        11948 kbps          1080p / 23.976 fps / 16:9 / High Profile 4.1

AUDIO:

Codec                           Language        Bitrate         Description     
-----                           --------        -------         -----------     
LPCM Audio                      English         4608 kbps       2.0 / 96 kHz /  4608 kbps / 24-bit

FILES:

Name            Time In         Length          Size            Total Bitrate   
----            -------         ------          ----            -------------   
00001.M2TS      0:00:00.000     0:43:47.499     5,734,868,352   17,461          
00019.M2TS      0:43:47.499     0:00:01.000     24,576          196             

CHAPTERS:

Number          Time In         Length          Avg Video Rate  Max 1-Sec Rate  Max 1-Sec Time  Max 5-Sec Rate  Max 5-Sec Time  Max 10Sec Rate  Max 10Sec Time  Avg Frame Size  Max Frame Size  Max Frame Time  
------          -------         ------          --------------  --------------  --------------  --------------  --------------  --------------  --------------  --------------  --------------  --------------  
1               0:00:00.000     0:07:22.316     10,914 kbps     17,725 kbps     00:07:21.232    12,372 kbps     00:07:13.891    11,534 kbps     00:07:01.504    56,893 bytes    910,903 bytes   00:00:04.504    
2               0:07:22.316     0:05:59.233     11,590 kbps     18,059 kbps     00:13:20.049    12,774 kbps     00:13:15.377    11,959 kbps     00:12:55.649    60,424 bytes    910,200 bytes   00:12:25.035    
3               0:13:21.550     0:08:51.656     11,838 kbps     20,887 kbps     00:15:56.038    13,392 kbps     00:15:53.243    12,291 kbps     00:15:48.197    61,719 bytes    913,139 bytes   00:19:25.289    
4               0:22:13.206     0:12:11.564     12,218 kbps     18,686 kbps     00:34:16.179    13,435 kbps     00:34:12.467    12,613 kbps     00:34:12.967    63,699 bytes    911,817 bytes   00:34:23.561    
5               0:34:24.771     0:09:22.728     12,765 kbps     21,413 kbps     00:43:42.286    16,435 kbps     00:43:41.368    15,308 kbps     00:43:36.530    66,556 bytes    910,712 bytes   00:40:56.287    
6               0:43:47.499     0:00:01.000     75 kbps         0 kbps          00:00:00.000    0 kbps          00:00:00.000    0 kbps          00:00:00.000    407 bytes       2,424 bytes     00:43:48.250    

STREAM DIAGNOSTICS:

File            PID             Type            Codec           Language                Seconds                 Bitrate                 Bytes           Packets         
----            ---             ----            -----           --------                --------------          --------------          -------------   -----           
00001.M2TS      4113 (0x1011)   0x1B            AVC                                     2627.416                11,955                  3,926,481,555   21,377,180      
00001.M2TS      4352 (0x1100)   0x80            LPCM            eng (English)           2627.416                4,615                   1,515,542,000   8,408,000       
00019.M2TS      4113 (0x1011)   0x1B            AVC                                     0.876                   108                     11,791          72              

<---- END FORUMS PASTE ---->

QUICK SUMMARY:

Disc Label: KING CRIMSON
Disc Size: 35,461,345,967 bytes
Protection: AACS
Playlist: 00001.MPLS
Size: 5,734,892,928 bytes
Length: 0:43:48.500
Total Bitrate: 17.45 Mbps
Video: MPEG-4 AVC Video / 11948 kbps / 1080p / 23.976 fps / 16:9 / High Profile 4.1
Audio: English / LPCM Audio / 2.0 / 96 kHz / 4608 kbps / 24-bit


********************
PLAYLIST: 00006.MPLS
********************

<--- BEGIN FORUMS PASTE --->

Code: Select all

                                                                                                                Total   Video                                             
Title                                                           Codec   Length  Movie Size      Disc Size       Bitrate Bitrate Main Audio Track                          Secondary Audio Track
-----                                                           ------  ------- --------------  --------------  ------- ------- ------------------                        ---------------------
00006.MPLS                                                      AVC     0:01:46 273,860,160     35,461,345,967  20.51   17.83   LPCM 2.0 1536Kbps (48kHz/16-bit)          

Code: Select all


DISC INFO:

Disc Label:     KING CRIMSON
Disc Size:      35,461,345,967 bytes
Protection:     AACS
BDInfo:         0.7.5.5

PLAYLIST REPORT:

Name:                   00006.MPLS
Length:                 0:01:46.815 (h:m:s.ms)
Size:                   273,860,160 bytes
Total Bitrate:          20.51 Mbps

VIDEO:

Codec                   Bitrate             Description     
-----                   -------             -----------     
MPEG-4 AVC Video        17829 kbps          1080p / 23.976 fps / 16:9 / High Profile 4.1

AUDIO:

Codec                           Language        Bitrate         Description     
-----                           --------        -------         -----------     
LPCM Audio                      English         1536 kbps       2.0 / 48 kHz /  1536 kbps / 16-bit

FILES:

Name            Time In         Length          Size            Total Bitrate   
----            -------         ------          ----            -------------   
00006.M2TS      0:00:00.000     0:01:45.814     273,835,584     20,695          
00019.M2TS      0:01:45.814     0:00:01.000     24,576          196             

CHAPTERS:

Number          Time In         Length          Avg Video Rate  Max 1-Sec Rate  Max 1-Sec Time  Max 5-Sec Rate  Max 5-Sec Time  Max 10Sec Rate  Max 10Sec Time  Avg Frame Size  Max Frame Size  Max Frame Time  
------          -------         ------          --------------  --------------  --------------  --------------  --------------  --------------  --------------  --------------  --------------  --------------  
1               0:00:00.000     0:01:45.814     18,004 kbps     25,015 kbps     00:00:30.280    22,253 kbps     00:00:28.194    20,733 kbps     00:00:41.791    93,902 bytes    192,655 bytes   00:00:31.197    
2               0:01:45.814     0:00:01.000     75 kbps         0 kbps          00:00:00.000    0 kbps          00:00:00.000    0 kbps          00:00:00.000    407 bytes       2,424 bytes     00:01:46.564    

STREAM DIAGNOSTICS:

File            PID             Type            Codec           Language                Seconds                 Bitrate                 Bytes           Packets         
----            ---             ----            -----           --------                --------------          --------------          -------------   -----           
00006.M2TS      4113 (0x1011)   0x1B            AVC                                     105.731                 18,018                  238,134,496     1,295,706       
00006.M2TS      4352 (0x1100)   0x80            LPCM            eng (English)           105.731                 1,544                   20,401,132      126,978         
00019.M2TS      4113 (0x1011)   0x1B            AVC                                     0.876                   108                     11,791          72              

<---- END FORUMS PASTE ---->

QUICK SUMMARY:

Disc Label: KING CRIMSON
Disc Size: 35,461,345,967 bytes
Protection: AACS
Playlist: 00006.MPLS
Size: 273,860,160 bytes
Length: 0:01:46.815
Total Bitrate: 20.51 Mbps
Video: MPEG-4 AVC Video / 17829 kbps / 1080p / 23.976 fps / 16:9 / High Profile 4.1
Audio: English / LPCM Audio / 2.0 / 48 kHz / 1536 kbps / 16-bit


********************
PLAYLIST: 00008.MPLS
********************

<--- BEGIN FORUMS PASTE --->

Code: Select all

                                                                                                                Total   Video                                             
Title                                                           Codec   Length  Movie Size      Disc Size       Bitrate Bitrate Main Audio Track                          Secondary Audio Track
-----                                                           ------  ------- --------------  --------------  ------- ------- ------------------                        ---------------------
00008.MPLS                                                      AVC     0:00:21 9,373,248       35,461,345,967  3.55    2.20    LPCM 2.0 2304Kbps (48kHz/24-bit)          

Code: Select all


DISC INFO:

Disc Label:     KING CRIMSON
Disc Size:      35,461,345,967 bytes
Protection:     AACS
BDInfo:         0.7.5.5

PLAYLIST REPORT:

Name:                   00008.MPLS
Length:                 0:00:21.146 (h:m:s.ms)
Size:                   9,373,248 bytes
Total Bitrate:          3.55 Mbps

VIDEO:

Codec                   Bitrate             Description     
-----                   -------             -----------     
MPEG-4 AVC Video        2195 kbps           1080p / 23.976 fps / 16:9 / High Profile 4.1

AUDIO:

Codec                           Language        Bitrate         Description     
-----                           --------        -------         -----------     
LPCM Audio                      English         2304 kbps       2.0 / 48 kHz /  2304 kbps / 24-bit

FILES:

Name            Time In         Length          Size            Total Bitrate   
----            -------         ------          ----            -------------   
00018.M2TS      0:00:00.000     0:00:10.009     3,299,328       2,637           
00009.M2TS      0:00:10.009     0:00:10.135     6,049,344       4,755           
00019.M2TS      0:00:20.145     0:00:01.000     24,576          196             

CHAPTERS:

Number          Time In         Length          Avg Video Rate  Max 1-Sec Rate  Max 1-Sec Time  Max 5-Sec Rate  Max 5-Sec Time  Max 10Sec Rate  Max 10Sec Time  Avg Frame Size  Max Frame Size  Max Frame Time  
------          -------         ------          --------------  --------------  --------------  --------------  --------------  --------------  --------------  --------------  --------------  --------------  
1               0:00:00.000     0:00:21.146     2,200 kbps      6,325 kbps      00:00:15.306    3,300 kbps      00:00:14.973    2,414 kbps      00:00:07.465    11,491 bytes    214,945 bytes   00:00:05.255    

STREAM DIAGNOSTICS:

File            PID             Type            Codec           Language                Seconds                 Bitrate                 Bytes           Packets         
----            ---             ----            -----           --------                --------------          --------------          -------------   -----           
00018.M2TS      4113 (0x1011)   0x1B            AVC                                     9.885                   2,491                   3,077,540       16,822          
00009.M2TS      4113 (0x1011)   0x1B            AVC                                     10.052                  2,170                   2,726,395       14,952          
00009.M2TS      4352 (0x1100)   0x80            LPCM            eng (English)           10.052                  2,330                   2,926,988       16,216          
00019.M2TS      4113 (0x1011)   0x1B            AVC                                     0.876                   108                     11,791          72              

<---- END FORUMS PASTE ---->

QUICK SUMMARY:

Disc Label: KING CRIMSON
Disc Size: 35,461,345,967 bytes
Protection: AACS
Playlist: 00008.MPLS
Size: 9,373,248 bytes
Length: 0:00:21.146
Total Bitrate: 3.55 Mbps
Video: MPEG-4 AVC Video / 2195 kbps / 1080p / 23.976 fps / 16:9 / High Profile 4.1
Audio: English / LPCM Audio / 2.0 / 48 kHz / 2304 kbps / 24-bit
admin
Site Admin
Posts: 683
Joined: Wed Nov 17, 2010 12:56 pm

Re: v.1.107 Error by extracting any PCM bluray audio

Post by admin »

ilk2011
Posts: 38
Joined: Tue Feb 11, 2020 7:20 pm

Re: v.1.107 Error by extracting any PCM bluray audio

Post by ilk2011 »

No for all tracks.
01.01.2021 18:05:14: ERROR: C:\Users\............\Desktop\ISLANDS\STREAM\00002.m2ts / C:\Users............\Music\03. Track 03 (pcm_bluray).wav : avformat_write_header failed -40
admin
Site Admin
Posts: 683
Joined: Wed Nov 17, 2010 12:56 pm

Re: v.1.107 Error by extracting any PCM bluray audio

Post by admin »

You need to use encode for pcm stream.
ilk2011
Posts: 38
Joined: Tue Feb 11, 2020 7:20 pm

Re: v.1.107 Error by extracting any PCM bluray audio

Post by ilk2011 »

You need to use encode for pcm stream.
Does that mean, that encoded file will NOT be equal the initial file on the BD?
admin
Site Admin
Posts: 683
Joined: Wed Nov 17, 2010 12:56 pm

Re: v.1.107 Error by extracting any PCM bluray audio

Post by admin »

It will be. It's just that PCM stream needs to be put in some kind of container format. It can be wav, flac or wavpack.
ilk2011
Posts: 38
Joined: Tue Feb 11, 2020 7:20 pm

[SOLVED] Re: v.1.107 Error by extracting any PCM bluray audio

Post by ilk2011 »

With beta 1.108 it works. Both the file recognition and encoding. Solved.
Post Reply